» » Sir Roland Hanna Trio - Milan, Paris, New York

Sir Roland Hanna Trio - Milan, Paris, New York download album

  • Performer: Sir Roland Hanna Trio
  • Album: Milan, Paris, New York
  • FLAC: 1458 mb | MP3: 1714 mb
  • Country: Japan
  • Rating: 4.5/5
  • Votes: 242
  • Format: WAV ASF APE AUD RA AA MMF
Sir Roland Hanna Trio - Milan, Paris, New York download album

Album · 2002 · 9 Songs. 3. Afternoon in Paris.

Слушайте и скачивайте roland hanna trio на Хотплеере в mp. .

Listen to Milano from Sir Roland Hanna Trio's Milan, Paris, New York for free, and see the artwork, lyrics and similar artists. A new version of Last.

Featured New Releases. This CD represents one venerable pianist paying tribute to another: Sir Roland Hanna and his fine trio playing compositions by, associated with, or written for John Lewis, the musical director of the Modern Jazz Quartet for all of its life. Lewis was admired for his distinctive bop playing and his creative involvement with one of the greatest groups in jazz history, but only one of his originals has become a standard: the immortal "Django," rendered here in an elegant arrangement that alternates between somber and swinging.

Milan, Paris, New York: Finding John Lewis is a superb piano trio album by Sir Roland Hanna Trio, dedicated to the classic pianist John Lewis. On this release, Hanna is joined by George Mraz on bass and Lewis Nash on drums. The music here is stylish and alluring. Sir Roland Hanna was one of the major artists in jazz and one of the most flexible pianists of any generation. Born in Detroit Michigan, Roland began private piano studies with Ms. Josephine Love at an early age. After graduation from Cass Technical High School and a two-year stint in the US Army, he continued his musical studies at the Eastman and Juilliard Schools of Music. 1. Django 2. Skating In Central Park 3. Afternoon In Paris 4. Milan 5. Bag's Groove 6. New York 19 7. Portrait Of John Lewis 8. The Clarion Bells Of Zurich 9. Perugia. Personnel: Sir Roland Hanna, piano George Mraz, bass Lewis Nash, drums.

Artist: Sir Roland Hanna Trio. Album: Milan, Paris, New York. Download Sir Roland Hanna Trio - Milano. Milan, Paris, New York: Best 2 songs. Sir Roland Hanna Trio - The Clarion Bells of Zurich 05:12. Artist: Sir Roland Hanna Trio.

wav" WAVE TRACK 01 AUDIO TITLE "Django" PERFORMER "Sir Roland Hanna Trio" INDEX 01 00:00:00 TRACK 02 AUDIO TITLE "Skating In Central Park" PERFORMER "Sir Roland. 24 FILE "04 - Milano. wav" WAVE INDEX 01 00:00:00 TRACK 05 AUDIO TITLE "Bag's Groove" PERFORMER "Sir Roland Hanna Trio" INDEX 00 05:55:08 FILE "05 - Bag's Groove. wav" WAVE INDEX 01 00:00:00 TRACK 06 AUDIO TITLE "New York 19" PERFORMER "Sir Roland Hanna Trio" INDEX 00 06:11:53 FILE "06 - New York 1. av".

Sir Roland Hanna - piano George Mraz - bass Lewis Nash - drums Recorded at The Studio in New York on April 1, 2002. Sir Roland Hanna Trio. Milan, Paris, New York. spaceshowermusic (от лица компании "Venus Records, In. ) Ещё. Свернуть. Автовоспроизведение Если функция включена, то следующий ролик начнет воспроизводиться автоматически.

Roland Pembroke Hanna (February 10, 1932 – November 13, 2002) was an American jazz pianist, composer, and teacher. Hanna studied classical piano from the age of 11, but was strongly interested in jazz, having been introduced to it by his friend, pianist Tommy Flanagan. This interest increased after his time in military service, 1950–52. He studied briefly at the Eastman School of Music in 1953 and then enrolled at the Juilliard School when he moved to New York two years later.

Tracklist

1 Django
2 Skating In Central Park
3 Afternoon In Paris
4 Milano
5 Bag’s Groove
6 New York 19
7 Portrait Of John Lewis
8 The Clarion Bells Of Zurich
9 Perugia

Companies, etc.

  • Phonographic Copyright (p) – Venus Records, Inc.
  • Copyright (c) – Venus Records, Inc.

Barcode and Other Identifiers

  • Matrix / Runout: TKCU-35303 1MS1 C 25
  • Mastering SID Code: IFPI L225
  • Label Code: JASRAC

Other versions

Category Artist Title (Format) Label Category Country Year
TKCV-35303 Sir Roland Hanna Trio* Milano, Paris, New York ‎(CD, Album) Venus Records TKCV-35303 Japan 2002
VHCD-2031 Sir Roland Hanna Trio* Milano, Paris, New York ‎(CD, Album, RE) Venus Records VHCD-2031 Japan 2008
TKJV-19113 Roland Hanna Trio Milano, Paris, New York ‎(LP, Album, 180) Venus Records TKJV-19113 Japan Unknown
VHCD-4082 Sir Roland Hanna Trio* Milan, Paris, New York ‎(CD, Album, Ltd, RE, RM, Pap) Venus Records VHCD-4082 Japan 2010
VHCD-78060 Sir Roland Hanna Trio* Milan, Paris, New York ‎(CD, Album) Venus Records VHCD-78060 Japan 2003